The Wire Temporada 5 [Dual] [650MB] [DVDrip] [10/10]

The Wire Temporada 5 [Dual] [650MB] [DVDrip] [10/10] descargar 1 link, todos los episodios y capitulos, español latino y castellano, subtitulada, full HD, estrenos, torrent, descarga directa, rapidshare, mediafire


Información


Año de inicio 2008
Pais EEUU
Duración 60 min.
Géneros Crimen, Drama, Misterio
Idiomas Inglés, Griego, Mandarina
Directores Joe Chappelle, Ernest R. Dickerson, Clark Johnson, Ed Bianchi, Steve Shill, Daniel Attias,Timothy Van Patten, Agnieszka Holland, Brad Anderson, Clément Virgo, Rob Bailey,Elodie Keene, Christine Moore, Alex Zakrzewski, Anthony Hemingway, Seith Mann
Título original The Wire [+]


Sinopsis


The Wire es una serie de televisión norteamericana cuya historia se desarrolla en Baltimore, Maryland. La serie fue ideada, escrita y producida por el periodista y escritor de novela policiaca David Simon. La serie fue estrenada por el canal de televisión por cable HBO el 2 de junio de 2002 y finalizó su emsión el 9 de marzo de 2008, periodo en el que se emitieron sesenta capítulos repartidos en cinco temporadas. TheWire trata de ser una visión realista de la vida de Baltimore, especialmente centrado en el tráfico de drogas. Muchos de sus personajes se basan en personajes reales de Baltimore y varios actores secundarios son amateurs que interpretan sus propios personajes.


Mediainfo:


Código:
GeneralFormat                                   : AVI
Format/Info : Audio Video Interleave
File size : 647 MiB
Duration : 56mn 16s
Overall bit rate mode : Variable
Overall bit rate : 1 608 Kbps
Writing application : VirtualDubMod 1.5.10.2 (build 2540/release)
Writing library : VirtualDubMod build 2540/release

Video
ID : 0
Format : MPEG-4 Visual
Format profile : Advanced Simple@L5
Format settings, BVOP : 2
Format settings, QPel : No
Format settings, GMC : No warppoints
Format settings, Matrix : Default (H.263)
Codec ID : XVID
Codec ID/Hint : XviD
Duration : 56mn 16s
Bit rate : 1 267 Kbps
Width : 512 pixels
Height : 384 pixels
Display aspect ratio : 4:3
Frame rate : 25.000 fps
Original frame rate : 23.976 fps
Color space : YUV
Chroma subsampling : 4:2:0
Bit depth : 8 bits
Scan type : Progressive
Compression mode : Lossy
Bits/(Pixel*Frame) : 0.258
Stream size : 510 MiB (79%)
Writing library : XviD 1.1.2 (UTC 2006-11-01)

Audio #1
ID : 1
Format : MPEG Audio
Format version : Version 1
Format profile : Layer 3
Codec ID : 55
Codec ID/Hint : MP3
Duration : 56mn 16s
Bit rate mode : Constant
Bit rate : 192 Kbps
Channel(s) : 2 channels
Sampling rate : 48.0 KHz
Compression mode : Lossy
Stream size : 77.3 MiB (12%)
Alignment : Aligned on interleaves
Interleave, duration : 40 ms (1.00 video frame)
Interleave, preload duration : 504 ms

Audio #2
ID : 2
Format : MPEG Audio
Format version : Version 1
Format profile : Layer 3
Mode : Joint stereo
Mode extension : MS Stereo
Codec ID : 55
Codec ID/Hint : MP3
Duration : 56mn 16s
Bit rate mode : Variable
Bit rate : 128 Kbps
Channel(s) : 2 channels
Sampling rate : 48.0 KHz
Compression mode : Lossy
Stream size : 52.9 MiB (8%)
Alignment : Aligned on interleaves
Interleave, duration : 24 ms (0.60 video frame)
Interleave, preload duration : 140 ms
Writing library : LAME3.90.
Encoding settings : -m j -V 4 -q 2 -lowpass 17.6 –abr 128


Descarga:


Uploaded.to:


Código:


Código:
1×01

http://***********/qx0d8ivn

1×02

http://***********/00yikzan

1×03

http://***********/cxcsydcn

1×04

http://***********/y2iv56p9

1×05

http://***********/bm9sz1hw

1×06

http://***********/x8l4cuoa

1×07

http://***********/89mkt02g

1×08

http://***********/hn12m6gp

1×09

http://***********/a5j7g9yo

1×10

http://***********/k0yu35la


Extabit:


Código:


Código:
1×01

http://***********/file/28cuxrv6c304t/

1×02

http://***********/file/28cuxrvakfoul/

1×03

http://***********/file/28cuxrvamxrh9/

1×04

http://***********/file/28cuxrtg0zia5/

1×05

http://***********/file/28cuxrtg2vpzh/

1×06

http://***********/file/28cuxrtg1n7q5/

1×07

http://***********/file/28cuxrv6dys3h/

1×08

http://***********/file/28cuxq45lg23h/

1×09

http://***********/file/28cuxq41d4f99/

1×10
http://***********/file/28cuxq419zvh9/

The Wire Temporada 5 [Dual] [650MB] [DVDrip] [10/10] descargar 1 link, todos los episodios y capitulos, español latino y castellano, subtitulada, full HD, estrenos, torrent, descarga directa, rapidshare, mediafire