Ilegales(Lawless)[BDRip 720p][LATINO]AC3 5.1/DTS[En-US][Sub Esp][Drama][2012] Descargar Gratis

Ilegales(Lawless)[BDRip 720p][LATINO]AC3 5.1/DTS[En-US][Sub Esp][Drama][2012] Descargar Gratisdescarga gratis, descargar 1 link, subtitulos, bluray, ver online, rapidshare, mediafire, rapidgator, full HD, dvdrip, rmvb, castellano, español latino


Ilegales(Lawless)[BDRip 720p][LATINO]AC3 5.1/DTS[En-US][Sub Esp][Drama][2012]


Ficha Técnica
TÍTULO ORIGINAL: Lawless (The Wettest County in the World)
AÑO: 2012
DURACIÓN: 115 min.
PAÍS: USA
DIRECTOR: John Hillcoat
GUIÓN: Nick Cave (Novela: Matt Bondurant)
REPARTO: Shia LaBeouf, Tom Hardy, Gary Oldman, Jessica Chastain, Mia Wasikowska, Guy Pearce, Jason Clarke, Noah Taylor, Dane DeHaan, Eric Mendenhall
PRODUCTORA: Millennium Films / Nu Image
GÉNERO: Drama | Basado en hechos reales. Años 20. Años 30. Gran Depresión

Sinopsis
Adaptación de una novela de Matt Bondurant que se inspiró en hechos reales protagonizados por su propia familia. Narra las peripecias de una banda que traficaba con whisky casero cuando aún estaba vigente en Estados Unidos la Ley Seca (1920 a 1933).


Audio Latino AC3 2.0 De TV De Muy Buena Calidad

Datos Técnicos


Código:
General
Complete name : C:\Ilegales Latino BDRip.CadagotoHD\Lawless.2012.720p.BDRip Español Latino CadagotoHD.mkv
Format : Matroska
Format version : Version 2
File size : 6.49 GiB
Duration : 1h 55mn
Overall bit rate : 8 031 Kbps
Movie name : :::….CadagotoHD….:::
Encoded date : UTC 2012-12-06 00:21:57
Writing application : mkvmerge v3.4.0 (‘Rapunzel’) built on May 15 2010 09:38:20
Writing library : libebml v0.8.0 + libmatroska v0.9.0

Video
ID : 1
Format : AVC
Format/Info : Advanced Video Codec
Format profile : [email protected]
Format settings, CABAC : Yes
Format settings, ReFrames : 12 frames
Codec ID : V_MPEG4/ISO/AVC
Duration : 1h 55mn
Bit rate : 5 700 Kbps
Width : 1 280 pixels
Height : 534 pixels
Display aspect ratio : 2.40:1
Frame rate mode : Constant
Frame rate : 23.976 fps
Color space : YUV
Chroma subsampling : 4:2:0
Bit depth : 8 bits
Scan type : Progressive
Bits/(Pixel*Frame) : 0.348
Stream size : 4.47 GiB (69%)
Title : :::….CadagotoHD….:::
Writing library : x264 core 128 r2216+688+33 06dac27 tMod+MixAQ [8-bit@4:2:0 X86_64]
Encoding settings : cabac=1 / ref=12 / deblock=1:-3:-3 / analyse=0×3:0×113 / me=umh / subme=10 / psy=1 / fade_compensate=0.00 / psy_rd=1.15:0.05 / mixed_ref=1 / me_range=32 / chroma_me=1 / trellis=2 / 8x8dct=1 / cqm=0 / deadzone=21,11 / fast_pskip=0 / chroma_qp_offset=-3 / threads=18 / lookahead_threads=3 / sliced_threads=0 / nr=0 / decimate=0 / interlaced=0 / bluray_compat=0 / constrained_intra=0 / fgo=0 / bframes=8 / b_pyramid=2 / b_adapt=2 / b_bias=0 / direct=3 / weightb=1 / open_gop=0 / weightp=2 / keyint=240 / keyint_min=24 / scenecut=40 / intra_refresh=0 / rc_lookahead=240 / rc=2pass / mbtree=1 / bitrate=5700 / ratetol=1.0 / qcomp=0.70 / qpmin=0 / qpmax=69 / qpstep=4 / cplxblur=20.0 / qblur=0.5 / ip_ratio=1.10 / aq=1 / aq-strength=0.80 / aq-sensitivity=10.00 / aq-ifactor=1.00 / aq-pfactor=1.00 / aq-bfactor=1.00 / aq2=0
Language : English
Default : No
Forced : No

Audio #1
ID : 2
Format : AC-3
Format/Info : Audio Coding 3
Mode extension : CM (complete main)
Format settings, Endianness : Big
Codec ID : A_AC3
Duration : 1h 55mn
Bit rate mode : Constant
Bit rate : 192 Kbps
Channel(s) : 2 channels
Channel positions : Front: L R
Sampling rate : 48.0 KHz
Bit depth : 16 bits
Compression mode : Lossy
Stream size : 159 MiB (2%)
Title : :::….CadagotoHD….::: Español Latino
Language : Spanish
Default : Yes
Forced : Yes

Audio #2
ID : 3
Format : AC-3
Format/Info : Audio Coding 3
Mode extension : CM (complete main)
Format settings, Endianness : Big
Codec ID : A_AC3
Duration : 1h 55mn
Bit rate mode : Constant
Bit rate : 448 Kbps
Channel(s) : 6 channels
Channel positions : Front: L C R, Side: L R, LFE
Sampling rate : 48.0 KHz
Bit depth : 16 bits
Compression mode : Lossy
Stream size : 371 MiB (6%)
Title : :::….CadagotoHD….::: Ingles AC3 5.1
Language : English
Default : No
Forced : No

Audio #3
ID : 4
Format : DTS
Format/Info : Digital Theater Systems
Mode : 16
Format settings, Endianness : Big
Codec ID : A_DTS
Duration : 1h 55mn
Bit rate mode : Constant
Bit rate : 1 509 Kbps
Channel(s) : 6 channels
Channel positions : Front: L C R, Side: L R, LFE
Sampling rate : 48.0 KHz
Bit depth : 24 bits
Compression mode : Lossy
Delay relative to video : 11ms
Stream size : 1.22 GiB (19%)
Title : :::….CadagotoHD….::: Ingles DTS
Language : English
Default : No
Forced : No

Audio #4
ID : 5
Format : AC-3
Format/Info : Audio Coding 3
Mode extension : CM (complete main)
Format settings, Endianness : Big
Codec ID : A_AC3
Duration : 1h 55mn
Bit rate mode : Constant
Bit rate : 192 Kbps
Channel(s) : 2 channels
Channel positions : Front: L R
Sampling rate : 48.0 KHz
Bit depth : 16 bits
Compression mode : Lossy
Stream size : 159 MiB (2%)
Title : commentary
Language : English
Default : No
Forced : No

Text #1
ID : 6
Format : UTF-8
Codec ID : S_TEXT/UTF8
Codec ID/Info : UTF-8 Plain Text
Title : Sub Español Latino
Language : Spanish
Default : No
Forced : Yes

Text #2
ID : 7
Format : UTF-8
Codec ID : S_TEXT/UTF8
Codec ID/Info : UTF-8 Plain Text
Title : Forz
Language : Spanish
Default : Yes
Forced : Yes

Text #3
ID : 8
Format : PGS
Codec ID : S_HDMV/PGS
Codec ID/Info : The same subtitle format used on BDs/HD-DVDs
Title : Sub Ingles
Language : English
Default : No
Forced : No













Deseas Bajar A Maxima Velocidad?,Cliquea Este Link Y Adquiere Tu Premiun y Me Ayudas A Seguir Subiendo!
Si Tienes Cuenta En Uploaded y deseas ayudar , registrate con un E-Mail totalmente nuevo ..Gracias !

http://down.descargaren1link.co/decode.php?h=aHR0cDovL3VsLnRvL3JlZi8yMTQ0MjYz

Links De 500 Mb!
¡Descargar Los Enlaces AQUI!
http://down.descargaren1link.co/decode.php?h=aHR0cDovL3MybC5iaXovNGRicHBmbXNta2c=




Deseas Peliculas 720p – 1080p – 3D SBS – BluRay BD25 En Español Latino?

¡Solo Tienes Que Seguirme … CadagotoHD Siempre Lo Mejor en HD De La Web!

Ilegales(Lawless)[BDRip 720p][LATINO]AC3 5.1/DTS[En-US][Sub Esp][Drama][2012] Descargar Gratisdescarga gratis, descargar 1 link, subtitulos, bluray, ver online, rapidshare, mediafire, rapidgator, full HD, dvdrip, rmvb, castellano, español latino