[DVDRip] Descargar Gratis El Brujo y La Serpiente Blanca (2011) (Dvdrip) (Subtitulada) (Accion,Fantasia)

Descargar Gratis El Brujo y La Serpiente Blanca (2011) (Dvdrip) (Subtitulada) (Accion,Fantasia) descargar 1 link, ver online, rapidshare, mediafire, rapidgator, full HD, dvdrip, rmvb, castellano, descarga directa, español latino





Serpiente blanca (Eva Huang), mientras que bajo la apariencia de una mujer hermosa, se enamora de un herbolario joven llamado Xu Xian (Raymond Lam). Con la ayuda de la serpiente verde (Charlene Choi) es un riesgo para la vida se envía al mundo de los humanos y se casó a Xu Xian. Sin embargo, irónicamente, que va mucho más Fa Hai (Jet Li), un mago de la Shan, templo Zing. Una furiosa batalla está a punto de comenzar….



Titulo: The Sorcerer and the White Snake
Otros Titulos:: Bai Chuan Shuo Shé Zhi F? H?i / Es el Amor
Info: The Sorcerer and the White Snake (2011) – IMDb
Fecha de lanzamiento: 2011 (China)
Género: Acción | Fantasía
Actores: Jet Li, Huang Shengyi, Raymond Lam, Charlene Choi, Zhang Wen, Wu Jiang, Vivian Hsu, Miriam Yeung, Chapman To, Ley Kar-Ying, Lam Suet, Sonija Kwok
Calidad: DVDRip

INFO



Código:
General
Complete name : /disco3/grewlise/public_html/rapidleech/files/Descargas-Directas/The.Sorcerer.And.The.White.Snake.2011.DVD.XviD.V.O.Sub.Spanish.Edugre.avi
Format : AVI
Format/Info : Audio Video Interleave
File size : 695 MiB
Duration : 1h 42mn
Overall bit rate : 949 Kbps
Writing application : VirtualDubMod 1.5.10.2 (build 2540/release)
Writing library : VirtualDubMod build 2540/release

Video
ID : 0
Format : MPEG-4 Visual
Format profile : Advanced Simple@L5
Format settings, BVOP : 2
Format settings, QPel : No
Format settings, GMC : No warppoints
Format settings, Matrix : Default (H.263)
Muxing mode : Packed bitstream
Codec ID : XVID
Codec ID/Hint : XviD
Duration : 1h 42mn
Bit rate : 748 Kbps
Width : 608 pixels
Height : 256 pixels
Display aspect ratio : 2.40:1
Frame rate : 25.000 fps
Color space : YUV
Chroma subsampling : 4:2:0
Bit depth : 8 bits
Scan type : Progressive
Compression mode : Lossy
Bits/(Pixel*Frame) : 0.192
Stream size : 547 MiB (79%)
Writing library : XviD 1.1.2 (UTC 2006-11-01)

Audio
ID : 1
Format : AC-3
Format/Info : Audio Coding 3
Mode extension : CM (complete main)
Codec ID : 2000
Duration : 1h 42mn
Bit rate mode : Constant
Bit rate : 192 Kbps
Channel(s) : 2 channels
Channel positions : Front: L R
Sampling rate : 48.0 KHz
Bit depth : 16 bits
Compression mode : Lossy
Stream size : 140 MiB (20%)
Alignment : Split accross interleaves
Interleave, duration : 40 ms (1.00 video frame)
Interleave, preload duration : 500 ms








Ahora puedes ver el contenido ocultoGet The.Sorcerer.And.The.White.Snake.2011.DVD.XviD.V.O .Sub.Spanish.Edugre.avi on Wupload.com
Descargar Gratis El Brujo y La Serpiente Blanca (2011) (Dvdrip) (Subtitulada) (Accion,Fantasia) descargar 1 link, ver online, rapidshare, mediafire, rapidgator, full HD, dvdrip, rmvb, castellano, descarga directa, español latino